All categories Pictures Fisting and Dildo Homemade Special Interest Movies HD BDSM Gang Bang and Orgy Full Length Movies Packs Fetish Russian Clips Packs Met-Art and MetModels Erotic Video Library Full Length Movies (Gay) Transsexual Bisexual HD Movies and SiteRips Full Length Asian Movies (Gay) Asian Movies and SiteRips Interracial Mature Big Tits Scat MegaPacks SiteRips Packs (Gay) Peeing Masturbation Bukkake SiteRips Packs Femdom and Strapon Voyeur Pregnant Hentai

Bait Buddies 5 / Развести на секс приятелей 5 (Edward James, Edward James Productions) [2010 г., Amateur, Anal, Oral, Masturbation, Str8 Bait, DVDRip] (1.58 GB)


Request
Watch online and download

screenshot

Description

Bait Friends 5

Развести на секс приятелей 5
-

Year: 2010
Страна: US
Genre: Novice, Anal, Common, Masturbation, Str8 Bait
Duration: 02:01:58

Режиссер: Ed John
Studio: E James Shows

Starring: none available

Описание: Who hasn't wanted to have sex with their good looking straight friend? Everyone has, that's who! Observe these guys trick their "straight" buddies into making love with them once the "girl" never shows up for their sex scene. What's better still will be the "direct" guys getting off making use of their buddy that is homosexual... Merely to create some dough! Because it originates with every closing various and totally authentic catch this real live activity situation.

Доп. информация: http://www.gayeroticvideoindex.com/V/2/38602.html

Video quality: DVDRip
Video type: WMV
Video codec: Windows Media
Audio codec: WMA
Video: WMV2, 720x480 (1.500), 30.000 fps, INCH 758 Kbps (0.024 bit/pixel)
Audio: WMA2 L2, 48.0 KHz, 2 ch, 128 Kbps, CBR (en-us)

MediaInfo

Полное имя: H:XXX[apreder]XXX_Bait_Buddies_5(2010)DVDRip.wmvФормат : Windows MediaРазмер файла : 1,62 ГбайтПродолжительность : 2 ч. 1 м.Режим общего битрейта : ПеременныйОбщий поток : 1900 Кбит/секМаксимальный общий битрейт : 388 Кбит/секНазвание фильма : Trap Buddies No 5, Arena 1Дата кодирования : UTC 2011-01-20 23:30:10.121
ВидеоИдентификатор : 2Формат : WMV2Идентификатор кодека : WMV2Идентификатор кодека/Информация : Windows Media Movie 8Описание кодека : Windows Media Video V8Продолжительность : 2 ч. 1 м.Вид битрейта : ПеременныйБитрейт : 250 Кбит/секШирина : 720 пикселейВысота : 480 пикселейСоотношение сторон : 3:2Частота кадров : 29,970 кадров/секСтандарт вещания : NTSCБитовая глубина : 8 битБит/(Пиксели*Кадры) : 0.024Размер потока : 218 Мбайт (13%)Язык : Language (US)
АудиоИдентификатор : 1Формат : WMAВерсия формата : Edition 2Идентификатор кодека : 161Идентификатор кодека/Информация : Windows Media MusicОписание кодека : Windows Media Music 9.2 - 128 kbps, 48 kHz, music (A/V) 1-pass CBRПродолжительность : 2 ч. 1 м.Вид битрейта : ПостоянныйБитрейт : 128 Кбит/секКаналы : 2 каналаЧастота : 48,0 КГцБитовая глубина : 16 битРазмер потока : 112 Мбайт (7%)Язык : English (US)

Screenshots

Screenshots резерв

-

Мой
1999 релиз на pornolab.net

Filelist

[apreder]XXX_Bait_Buddies_5(2010)DVDRip.wmv 1738406427