2 Twisted / Извращенные вдвойне (David Lamm, Club Inferno, Hot House Video) [2006 г., Abuse, Muscle Men, Butt Play, Fisting, Rimming, Double Anal Penetration, Double Oral Penetration, Anal, Oral, Orgy Scene, DVDRip] (1.02 GB)

Request for download
2 Twisted / Извращенные вдвойне (David Lamm, Club Inferno, Hot House Video) [2006 г., Abuse, Muscle Men, Butt Play, Fisting, Rimming, Double Anal Penetration, Double Oral Penetration, Anal, Oral, Orgy Scene, DVDRip]

Description

2 Twisted

Извращенные вдвойне
-

Year: 2006 г.
Страна: US
Genre: Misuse, Muscle Men, Butt Perform, Fisting, Rimming, Double Anal Transmission, Double Common Penetration, Anal, Oral, Orgy Landscape
Duration: 01:54:05

Режиссер: David Lamm
Studio: Club Inferno, Hot-House Movie

Starring: Carlos Morales, Nick Piston, Bastien Forloux, Derrick Hanson, Dillon Media, Joey O'Bryan, Henry Energy, Nick Capra, Tony Serrano

Описание: Known Representative David Lamm returns to Membership Inferno with 2 Complicated having a new set of 9 put gender pigs in the kind-of unreasonable action that put his first Complicated attack at the very top of the maps! Glancing Hothouse Exclusive Nick Piston and Membership Inferno Celebrity Carlos Morales, these fist pets are 2 Twisted 2 edgy 2 degrading, 2 perverse, 2 applied 2 surprising and 2 powerful. More than 2 hours of nonstop attack to the greatest pockets inside the business! It's 2 Twisted!

Доп. информация: http://www.gayeroticvideoindex.com/V/5/27055.html

Video quality: DVDRip
Video type: WMV
Video codec: Windows Media
Audio codec: WMA
Video: VC-1, WMV3, 480x360 (4/3), 29.970 fps, 1 250 Kbps (0.241 bit/pixel)
Audio: WMA2 L2, 48.0 KHz, 2 ch, 64.0 Kbps, CBR (en-us)

MediaInfo

Полное имя: H:XXX[apreder]XXX_2_Twisted(2006)DVDRip.wmvФормат : Windows MediaРазмер файла : 1,04 ГбайтПродолжительность : 1 ч. 54 м.Режим общего битрейта : ПостоянныйОбщий поток : 1303 Кбит/секМаксимальный общий битрейт : 1328 Кбит/секДата кодирования : UTC 2009-03-14 02:14:59.759
ВидеоИдентификатор : 2Формат : VC 1Профиль формата : MP@MLИдентификатор кодека : WMV3Идентификатор кодека/Информация : Windows Media Movie 9Идентификатор кодека/Подсказка : WMV3Описание кодека : Windows Media Video 9Продолжительность : 1 ч. 54 м.Вид битрейта : ПостоянныйБитрейт : 1250 Кбит/секШирина : 480 пикселейВысота : 360 пикселейСоотношение сторон : 4:3Частота кадров : 29,970 кадров/секБитовая глубина : 8 битТип развёртки : ПрогрессивнаяМетод сжатия : С потерямиБит/(Пиксели*Кадры) : 0.241Размер потока : 1020 Мбайт (96%)Язык : English (US)
АудиоИдентификатор : 1Формат : WMAВерсия формата : Edition 2Идентификатор кодека : 161Идентификатор кодека/Информация : Windows Media MusicОписание кодека : Windows Media Sound 9.1 - 64 kbps, 48 kHz, music (A/V) 1-pass CBRПродолжительность : 1 ч. 54 м.Вид битрейта : ПостоянныйБитрейт : 64,0 Кбит/секКаналы : 2 каналаЧастота : 48,0 КГцБитовая глубина : 16 битРазмер потока : 52,3 Мбайт (5%)Язык : English (US)

Screenshots

Screenshots резерв

-

Мой
1943 релиз на pornolab.net

Filelist

[apreder]XXX_2_Twisted(2006)DVDRip.wmv 1114693360